撸撸网,天堂网 ,色撸撸

当前位置 - 最新发布小说 - 追鬼七雄
追鬼七雄


◎译  名 家鬼师长教师
◎片  名 逃鬼7雄
◎年  代 1983
◎产  天 喷鼻港
◎类  别 笑剧/恐惧
◎语  行 汉语通俗话/粤语
◎上映日期 1983-03-31
◎IMDb评分  5.9/10 from 38 users
◎IMDb链接  http://www.imdb.com/title/tt0083361/
◎豆瓣评分 6.4/10 from 751 users
◎豆瓣链接 https://movie.douban.com/subject/2063034/
◎导  演 于仁泰
◎主  演 郑则仕
       许冠英
       恬妮

◎简  介

  排少(郑则仕 饰)取阿英(许冠英 饰)乔拆赶尸讲人,取5名扮成僵尸的朋友夹带雅片销售路经马祥坪。把持1圆的苗老爷为侵占女乐害逝世琴师阿昌,威胁迷惑托排少携尸首出乡。7人出乡进进本初丛林,失慎将尸首遗降于硫磺池沼,世人将错便错,觅至客店安息。当早一位朋友逢害,城平易近传行厉鬼作怪,排少取其他5人汇集年夜蒜等物赴荒郊祛鬼,经过古墓内的几番比武,排少等人狼奔豕突。排少取阿英遁得生命后合返马祥坪背苗老爷报疑,初知厉鬼念头只正在背苗老爷觅恩,排少目击助阵羽士斗法厉鬼掉败,乘隙施计威胁苗老爷,反被对圆礼服,充做取厉鬼决斗时的肉饵……


@参数

Video

ID                          : 1

Format                      : AVC

Format/Info                 : Advanced Video Codec

Format profile              : High [email protected]

Format settings, CABAC      : Yes

Format settings, ReFrames   : 4 frames

Codec ID                    : V_MPEG4/ISO/AVC

Duration                    : 1 h 30 min

Bit rate                    : 6 021 kb/s

Width                       : 1 920 pixels

Height                      : 816 pixels

Display aspect ratio        : 2.35:1

Frame rate mode             : Constant

Frame rate                  : 23.976 (24000/1001) FPS

Color space                 : YUV

Chroma subsampling          : 4:2:0

Bit depth                   : 10 bits

Scan type                   : Progressive

Bits/(Pixel*Frame)          : 0.160

Stream size                 : 3.81 GiB (96%)

Title                       : 逃鬼7雄.片子烧包压抑

Writing library             : x264 core 148 r2638 7599210

Encoding settings           : cabac=1 / ref=3 / deblock=1:0:0 / analyse=0x3:0x133 / me=umh / subme=7 / psy=1 / psy_rd=1.02:0.08 / mixed_ref=1 / me_range=25 / chroma_me=1 / trellis=2 / 8x8dct=1 / cqm=0 / deadzone=21,11 / fast_pskip=0 / chroma_qp_offset=-3 / threads=16 / lookahead_threads=4 / sliced_threads=0 / nr=0 / decimate=0 / interlaced=0 / bluray_compat=0 / constrained_intra=0 / bframes=5 / b_pyramid=2 / b_adapt=2 / b_bias=0 / direct=3 / weightb=1 / open_gop=1 / weightp=2 / keyint=432 / keyint_min=23 / scenecut=38 / intra_refresh=0 / rc_lookahead=60 / rc=crf / mbtree=0 / crf=19.5 / qcomp=0.70 / qpmin=0 / qpmax=81 / qpstep=4 / vbv_maxrate=62500 / vbv_bufsize=78125 / crf_max=0.0 / nal_hrd=none / filler=0 / ip_ratio=1.40 / pb_ratio=1.30 / aq=2:1.00

Language                    : Chinese

Default                     : Yes

Forced                      : Yes


Audio

ID                          : 2

Format                      : AAC

Format/Info                 : Advanced Audio Codec

Format profile              : LC

Codec ID                    : A_AAC

Duration                    : 1 h 30 min

Bit rate                    : 229 kb/s

Channel(s)                  : 2 channels

Channel positions           : Front: L R

Sampling rate               : 44.1 kHz

Frame rate                  : 43.066 FPS (1024 spf)

Compression mode            : Lossy

Delay relative to video     : 10 ms

Stream size                 : 149 MiB (4%)

Title                       : 国语2.0

Language                    : Chinese

Default                     : Yes

Forced                      : Yes


Text #1

ID                          : 3

Format                      : ASS

Codec ID                    : S_TEXT/ASS

Codec ID/Info               : Advanced Sub Station Alpha

Duration                    : 1 h 29 min

Bit rate                    : 32 b/s

Count of elements           : 478

Compression mode            : Lossless

Stream size                 : 21.1 KiB (0%)

Title                       : [email protected]

Language                    : Chinese

Default                     : Yes

Forced                      : Yes


Text #2

ID                          : 4

Format                      : ASS

Codec ID                    : S_TEXT/ASS

Codec ID/Info               : Advanced Sub Station Alpha

Duration                    : 1 h 29 min

Bit rate                    : 32 b/s

Count of elements           : 478

Compression mode            : Lossless

Stream size                 : 21.1 KiB (0%)

Title                       : [email protected]

Language                    : Chinese

Default                     : No

Forced                      : No


@截图